PuZo.org: The Hockey Girls S01 Catalan 1080P Nf Webrip Ddp5 1 X264-Phenomenal - PuZo.org

Jump to content

Page 1 of 1
  • You cannot start a new topic
  • You cannot reply to this topic

The Hockey Girls S01 Catalan 1080P Nf Webrip Ddp5 1 X264-Phenomenal

#1 User is offline   knolan 

  • Addicted to PuZo's
  • PipPipPipPipPip
  • Group: Members
  • Posts: 34328
  • Joined: 01-March 17

Request DMCA Takedown Posted 17 October 2019 - 08:49 AM

Posted Image
The.Hockey.Girls.S01.CATALAN.1080p.NF.WEBRip.DDP5.1.x264-PHENOMENAL

Trailer

https://www.youtube.com/watch?v=GiTxS5SpkAc


1Fichier | RapidGator | Nitroflare

***** Nitroflare *****

http://nitroflare.com/view/112F55FB82C240B/The.Hockey.Girls.S01E07.1080p.WEBRip.X264-PHENOMENAL.mkv
http://nitroflare.com/view/1AD446EC5753B0F/The.Hockey.Girls.S01E12.1080p.WEBRip.X264-PHENOMENAL.mkv
http://nitroflare.com/view/3551AB0B5622D0C/The.Hockey.Girls.S01E10.1080p.WEBRip.X264-PHENOMENAL.mkv
http://nitroflare.com/view/3B2A9C36288F089/The.Hockey.Girls.S01E09.1080p.WEBRip.X264-PHENOMENAL.mkv
http://nitroflare.com/view/627DE96A3EB41A0/The.Hockey.Girls.S01E02.1080p.WEBRip.X264-PHENOMENAL.mkv
http://nitroflare.com/view/679C9BC198B1E41/The.Hockey.Girls.S01E01.1080p.WEBRip.X264-PHENOMENAL.mkv
http://nitroflare.com/view/9AE4776941A40A4/The.Hockey.Girls.S01E03.1080p.WEBRip.X264-PHENOMENAL.mkv
http://nitroflare.com/view/ADCD25F23F5D1CA/The.Hockey.Girls.S01E06.1080p.WEBRip.X264-PHENOMENAL.mkv
http://nitroflare.com/view/D0D6FBE74AEC0BB/The.Hockey.Girls.S01E13.1080p.WEBRip.X264-PHENOMENAL.mkv
http://nitroflare.com/view/D47546AD301C03F/The.Hockey.Girls.S01E08.1080p.WEBRip.X264-PHENOMENAL.mkv
http://nitroflare.com/view/DA0CC09838E9C49/The.Hockey.Girls.S01E11.1080p.WEBRip.X264-PHENOMENAL.mkv
http://nitroflare.com/view/EE223BC23731A31/The.Hockey.Girls.S01E05.1080p.WEBRip.X264-PHENOMENAL.mkv
http://nitroflare.com/view/FF6C65C116EEBCD/The.Hockey.Girls.S01E04.1080p.WEBRip.X264-PHENOMENAL.mkv


***** 1Fichier *****
https://1fichier.com/?6vl4cstgd2l1ksh45jkt
https://1fichier.com/?bztuk49e98dqd1uwxgdy
https://1fichier.com/?dsstr3ghqa8y4esxylcn
https://1fichier.com/?fgody0tiwllc26682y6g
https://1fichier.com/?ks9ap63ojcgq4flljpvo
https://1fichier.com/?mp8z5vkdo8aiw5v18wg0
https://1fichier.com/?nplhyzrgtyncfglzvzjk
https://1fichier.com/?nqg50q2pmio0cysaq2oz
https://1fichier.com/?rb1hfacy6dq9kb7c5ul7
https://1fichier.com/?ri2hjlupjqs8vky9g0dg
https://1fichier.com/?rnk5yg7x6dd4a314whtt
https://1fichier.com/?uab5mw7bbqj899fmqpj3
https://1fichier.com/?vmbczov82e1rsa11892e


***** RapidGator *****
https://rapidgator.net/file/0d3435b8276706e5f4a7a0afbd975a32/The.Hockey.Girls.S01E11.1080p.WEBRip.X264-PHENOMENAL.mkv
https://rapidgator.net/file/12c1c686f910d2d27becf5be88231fa0/The.Hockey.Girls.S01E01.1080p.WEBRip.X264-PHENOMENAL.mkv
https://rapidgator.net/file/2d2330b95ad48dee568aa72d0769e3a9/The.Hockey.Girls.S01E07.1080p.WEBRip.X264-PHENOMENAL.mkv
https://rapidgator.net/file/31073eb0075a4415b327a294ae708839/The.Hockey.Girls.S01E03.1080p.WEBRip.X264-PHENOMENAL.mkv
https://rapidgator.net/file/316160aaa54c87861149bdfc38096eab/The.Hockey.Girls.S01E13.1080p.WEBRip.X264-PHENOMENAL.mkv
https://rapidgator.net/file/5aedf1b2a9762eaf9fc02bde3282b94b/The.Hockey.Girls.S01E10.1080p.WEBRip.X264-PHENOMENAL.mkv
https://rapidgator.net/file/5ec76c0760c3a986b119fdf652473095/The.Hockey.Girls.S01E08.1080p.WEBRip.X264-PHENOMENAL.mkv
https://rapidgator.net/file/6db14c24392774b5e9e732ec0fa8287d/The.Hockey.Girls.S01E05.1080p.WEBRip.X264-PHENOMENAL.mkv
https://rapidgator.net/file/9123e90cf2b1dd1999509677fe3e0d06/The.Hockey.Girls.S01E02.1080p.WEBRip.X264-PHENOMENAL.mkv
https://rapidgator.net/file/c46a22777edc48feaf4e097f2a2c5a4e/The.Hockey.Girls.S01E09.1080p.WEBRip.X264-PHENOMENAL.mkv
https://rapidgator.net/file/d616026d1c6419271754b2cf0912aec6/The.Hockey.Girls.S01E04.1080p.WEBRip.X264-PHENOMENAL.mkv
https://rapidgator.net/file/e316a98f65d4f5528b46248c91775a51/The.Hockey.Girls.S01E06.1080p.WEBRip.X264-PHENOMENAL.mkv
https://rapidgator.net/file/e7b5350ca123e22cbc2abc3420a754d2/The.Hockey.Girls.S01E12.1080p.WEBRip.X264-PHENOMENAL.mkv


https://www.imdb.com/title/tt9486226/
Video
ID : 1
Format : AVC
Format/Info : Advanced Video Codec
Format profile : [email protected]
Format settings : CABAC / 4 Ref Frames
Format settings, CABAC : Yes
Format settings, Reference frames : 4 frames
Codec ID : V_MPEG4/ISO/AVC
Duration : 50 min 32 s
Bit rate : 6 752 kb/s
Width : 1 920 pixels
Height : 960 pixels
Display aspect ratio : 2.000
Frame rate mode : Constant
Frame rate : 25.000 FPS
Color space : YUV
Chroma subsampling : 4:2:0
Bit depth : 8 bits
Scan type : Progressive
Bits/(Pixel*Frame) : 0.147
Stream size : 2.38 GiB (84%)
Writing library : x264 core 157 r2969 d4099dd
Encoding settings : cabac=1 / ref=4 / deblock=1:-3:-3 / analyse=0x3:0x113 / me=hex / subme=8 / psy=1 / psy_rd=1.00:0.00 / mixed_ref=1 / me_range=16 / chroma_me=1 / trellis=2 / 8x8dct=1 / cqm=0 / deadzone=21,11 / fast_pskip=1 / chroma_qp_offset=-2 / threads=12 / lookahead_threads=2 / sliced_threads=0 / nr=0 / decimate=1 / interlaced=0 / bluray_compat=0 / constrained_intra=0 / bframes=3 / b_pyramid=2 / b_adapt=1 / b_bias=0 / direct=3 / weightb=1 / open_gop=0 / weightp=2 / keyint=250 / keyint_min=25 / scenecut=40 / intra_refresh=0 / rc_lookahead=50 / rc=crf / mbtree=1 / crf=17.5 / qcomp=0.60 / qpmin=0 / qpmax=69 / qpstep=4 / ip_ratio=1.40 / aq=1:1.00
Language : English
Default : Yes
Forced : No

Audio #1
ID : 2
Format : E-AC-3
Format/Info : Enhanced AC-3
Commercial name : Dolby Digital Plus
Codec ID : A_EAC3
Duration : 50 min 32 s
Bit rate mode : Constant
Bit rate : 640 kb/s
Channel(s) : 6 channels
Channel layout : L R C LFE Ls Rs
Sampling rate : 48.0 kHz
Frame rate : 31.250 FPS (1536 SPF)
Compression mode : Lossy
Stream size : 231 MiB (8%)
Title : Catalan
Language : Catalan
Service kind : Complete Main
Default : Yes
Forced : No

Audio #2
ID : 3
Format : E-AC-3
Format/Info : Enhanced AC-3
Commercial name : Dolby Digital Plus
Codec ID : A_EAC3
Duration : 50 min 32 s
Bit rate mode : Constant
Bit rate : 640 kb/s
Channel(s) : 6 channels
Channel layout : L R C LFE Ls Rs
Sampling rate : 48.0 kHz
Frame rate : 31.250 FPS (1536 SPF)
Compression mode : Lossy
Stream size : 231 MiB (8%)
Title : English
Language : English
Service kind : Complete Main
Default : No
Forced : No

Text #1
ID : 4
Format : UTF-8
Codec ID : S_TEXT/UTF8
Codec ID/Info : UTF-8 Plain Text
Duration : 49 min 45 s
Bit rate : 81 b/s
Count of elements : 772
Stream size : 29.7 KiB (0%)
Title : English
Language : English
Default : Yes
Forced : No

Text #2
ID : 5
Format : UTF-8
Codec ID : S_TEXT/UTF8
Codec ID/Info : UTF-8 Plain Text
Duration : 50 min 5 s
Bit rate : 85 b/s
Count of elements : 829
Stream size : 31.4 KiB (0%)
Title : English (SDH)
Language : English
Default : No
Forced : No

Text #3
ID : 6
Format : UTF-8
Codec ID : S_TEXT/UTF8
Codec ID/Info : UTF-8 Plain Text
Duration : 49 min 45 s
Bit rate : 74 b/s
Count of elements : 739
Stream size : 27.2 KiB (0%)
Title : Catalan (SDH)
Language : Catalan
Default : No
Forced : No

Text #4
ID : 7
Format : UTF-8
Codec ID : S_TEXT/UTF8
Codec ID/Info : UTF-8 Plain Text
Duration : 50 min 0 s
Bit rate : 113 b/s
Count of elements : 780
Stream size : 41.4 KiB (0%)
Title : Arabic
Language : Arabic
Default : No
Forced : No

Text #5
ID : 8
Format : UTF-8
Codec ID : S_TEXT/UTF8
Codec ID/Info : UTF-8 Plain Text
Duration : 50 min 10 s
Bit rate : 67 b/s
Count of elements : 773
Stream size : 24.9 KiB (0%)
Title : Czech
Language : Czech
Default : No
Forced : No

Text #6
ID : 9
Format : UTF-8
Codec ID : S_TEXT/UTF8
Codec ID/Info : UTF-8 Plain Text
Duration : 50 min 10 s
Bit rate : 59 b/s
Count of elements : 767
Stream size : 21.9 KiB (0%)
Title : Danish
Language : Danish
Default : No
Forced : No

Text #7
ID : 10
Format : UTF-8
Codec ID : S_TEXT/UTF8
Codec ID/Info : UTF-8 Plain Text
Duration : 50 min 10 s
Bit rate : 61 b/s
Count of elements : 767
Stream size : 22.5 KiB (0%)
Title : Dutch
Language : Dutch
Default : No
Forced : No

Text #8
ID : 11
Format : UTF-8
Codec ID : S_TEXT/UTF8
Codec ID/Info : UTF-8 Plain Text
Duration : 50 min 10 s
Bit rate : 50 b/s
Count of elements : 767
Stream size : 18.7 KiB (0%)
Title : Finnish
Language : Finnish
Default : No
Forced : No

Text #9
ID : 12
Format : UTF-8
Codec ID : S_TEXT/UTF8
Codec ID/Info : UTF-8 Plain Text
Duration : 50 min 10 s
Bit rate : 60 b/s
Count of elements : 771
Stream size : 22.2 KiB (0%)
Title : French
Language : French
Default : No
Forced : No

Text #10
ID : 13
Format : UTF-8
Codec ID : S_TEXT/UTF8
Codec ID/Info : UTF-8 Plain Text
Duration : 50 min 10 s
Bit rate : 59 b/s
Count of elements : 767
Stream size : 22.0 KiB (0%)
Title : German
Language : German
Default : No
Forced : No

Text #11
ID : 14
Format : UTF-8
Codec ID : S_TEXT/UTF8
Codec ID/Info : UTF-8 Plain Text
Duration : 50 min 10 s
Bit rate : 105 b/s
Count of elements : 774
Stream size : 38.9 KiB (0%)
Title : Greek
Language : Greek
Default : No
Forced : No

Text #12
ID : 15
Format : UTF-8
Codec ID : S_TEXT/UTF8
Codec ID/Info : UTF-8 Plain Text
Duration : 50 min 0 s
Bit rate : 107 b/s
Count of elements : 780
Stream size : 39.4 KiB (0%)
Title : Hebrew
Language : Hebrew
Default : No
Forced : No

Text #13
ID : 16
Format : UTF-8
Codec ID : S_TEXT/UTF8
Codec ID/Info : UTF-8 Plain Text
Duration : 50 min 10 s
Bit rate : 60 b/s
Count of elements : 767
Stream size : 22.1 KiB (0%)
Title : Hungarian
Language : Hungarian
Default : No
Forced : No

Text #14
ID : 17
Format : UTF-8
Codec ID : S_TEXT/UTF8
Codec ID/Info : UTF-8 Plain Text
Duration : 50 min 10 s
Bit rate : 56 b/s
Count of elements : 772
Stream size : 20.9 KiB (0%)
Title : Indonesian
Language : Indonesian
Default : No
Forced : No

Text #15
ID : 18
Format : UTF-8
Codec ID : S_TEXT/UTF8
Codec ID/Info : UTF-8 Plain Text
Duration : 50 min 10 s
Bit rate : 65 b/s
Count of elements : 767
Stream size : 24.2 KiB (0%)
Title : Italian
Language : Italian
Default : No
Forced : No

Text #16
ID : 19
Format : UTF-8
Codec ID : S_TEXT/UTF8
Codec ID/Info : UTF-8 Plain Text
Duration : 50 min 10 s
Bit rate : 61 b/s
Count of elements : 771
Stream size : 22.8 KiB (0%)
Title : Norwegian (Bokmal)
Language : Norwegian Bokmal
Default : No
Forced : No

Text #17
ID : 20
Format : UTF-8
Codec ID : S_TEXT/UTF8
Codec ID/Info : UTF-8 Plain Text
Duration : 50 min 10 s
Bit rate : 63 b/s
Count of elements : 769
Stream size : 23.2 KiB (0%)
Title : Polish
Language : Polish
Default : No
Forced : No

Text #18
ID : 21
Format : UTF-8
Codec ID : S_TEXT/UTF8
Codec ID/Info : UTF-8 Plain Text
Duration : 50 min 10 s
Bit rate : 67 b/s
Count of elements : 768
Stream size : 24.8 KiB (0%)
Title : Portuguese
Language : Portuguese
Default : No
Forced : No

Text #19
ID : 22
Format : UTF-8
Codec ID : S_TEXT/UTF8
Codec ID/Info : UTF-8 Plain Text
Duration : 50 min 10 s
Bit rate : 64 b/s
Count of elements : 770
Stream size : 23.6 KiB (0%)
Title : Portuguese (Brazilian)
Language : Portuguese
Default : No
Forced : No

Text #20
ID : 23
Format : UTF-8
Codec ID : S_TEXT/UTF8
Codec ID/Info : UTF-8 Plain Text
Duration : 50 min 0 s
Bit rate : 74 b/s
Count of elements : 766
Stream size : 27.1 KiB (0%)
Title : Romanian
Language : Romanian
Default : No
Forced : No

Text #21
ID : 24
Format : UTF-8
Codec ID : S_TEXT/UTF8
Codec ID/Info : UTF-8 Plain Text
Duration : 50 min 10 s
Bit rate : 115 b/s
Count of elements : 770
Stream size : 42.5 KiB (0%)
Title : Russian
Language : Russian
Default : No
Forced : No

Text #22
ID : 25
Format : UTF-8
Codec ID : S_TEXT/UTF8
Codec ID/Info : UTF-8 Plain Text
Duration : 49 min 45 s
Bit rate : 72 b/s
Count of elements : 712
Stream size : 26.6 KiB (0%)
Title : Spanish (European)
Language : Spanish
Default : No
Forced : No

Text #23
ID : 26
Format : UTF-8
Codec ID : S_TEXT/UTF8
Codec ID/Info : UTF-8 Plain Text
Duration : 49 min 52 s
Bit rate : 78 b/s
Count of elements : 790
Stream size : 28.5 KiB (0%)
Title : Spanish (European) (SDH)
Language : Spanish
Default : No
Forced : No

Text #24
ID : 27
Format : UTF-8
Codec ID : S_TEXT/UTF8
Codec ID/Info : UTF-8 Plain Text
Duration : 50 min 10 s
Bit rate : 61 b/s
Count of elements : 772
Stream size : 22.5 KiB (0%)
Title : Swedish
Language : Swedish
Default : No
Forced : No

Text #25
ID : 28
Format : UTF-8
Codec ID : S_TEXT/UTF8
Codec ID/Info : UTF-8 Plain Text
Duration : 50 min 10 s
Bit rate : 68 b/s
Count of elements : 772
Stream size : 25.2 KiB (0%)
Title : Turkish
Language : Turkish
Default : No
Forced : No

Text #26
ID : 29
Format : UTF-8
Codec ID : S_TEXT/UTF8
Codec ID/Info : UTF-8 Plain Text
Duration : 50 min 0 s
Bit rate : 96 b/s
Count of elements : 771
Stream size : 35.4 KiB (0%)
Title : Vietnamese
Language : Vietnamese
Default : No
Forced : No


Share this topic:


Page 1 of 1
  • You cannot start a new topic
  • You cannot reply to this topic