PuZo.org: The Ricky Gervais Show S01-S03 1080P Amzn Web-Dl Dd+5 1 X264-Cinefeel - PuZo.org

Jump to content

Page 1 of 1
  • You cannot start a new topic
  • You cannot reply to this topic

The Ricky Gervais Show S01-S03 1080P Amzn Web-Dl Dd+5 1 X264-Cinefeel

#1 User is online   fredzel 

  • Addicted to PuZo's
  • PipPipPipPipPip
  • Group: Members
  • Posts: 55225
  • Joined: 06-December 14

Posted 01 August 2020 - 04:27 PM

Posted Image

Quote

Ricky Gervais and Stephen Merchant talk to Karl Pilkington about important things in life whilst Karl provides anything but intelligent answers. Comedy at its finest with wonderful animation.

https://www.imdb.com/title/tt1553644/

General
Unique ID : 218766395672493514633597414836507043357 (0xA494E00EC11735489FCD549F9A10E61D)
Complete name : The.Ricky.Gervais.Show.S03E01.Bryan's.Brain.1080p.AMZN.WEB-DL.DD+5.1.x264-Cinefeel.mkv
Format : Matroska
Format version : Version 4 / Version 2
File size : 567 MiB
Duration : 23 min 57 s
Overall bit rate mode : Variable
Overall bit rate : 3 312 kb/s
Encoded date : UTC 2017-06-11 17:46:39
Writing application : mkvmerge v10.0.0 ('To Drown In You') 64bit
Writing library : libebml v1.3.4 + libmatroska v1.4.5

Video
ID : 1
Format : AVC
Format/Info : Advanced Video Codec
Format profile : [email protected]
Format settings, CABAC : Yes
Format settings, ReFrames : 4 frames
Codec ID : V_MPEG4/ISO/AVC
Duration : 23 min 57 s
Bit rate mode : Variable
Bit rate : 2 670 kb/s
Maximum bit rate : 15.0 Mb/s
Width : 1 920 pixels
Height : 1 080 pixels
Display aspect ratio : 16:9
Frame rate mode : Constant
Frame rate : 23.976 (24000/1001) FPS
Color space : YUV
Chroma subsampling : 4:2:0
Bit depth : 8 bits
Scan type : Progressive
Bits/(Pixel*Frame) : 0.054
Stream size : 458 MiB (81%)
Writing library : x264 core 148 r2623 d5b2374
Encoding settings : cabac=1 / ref=4 / deblock=1:-1:-1 / analyse=0x3:0x133 / me=umh / subme=9 / psy=1 / psy_rd=1.00:0.15 / mixed_ref=1 / me_range=24 / chroma_me=1 / trellis=2 / 8x8dct=1 / cqm=0 / deadzone=21,11 / fast_pskip=1 / chroma_qp_offset=-3 / threads=34 / lookahead_threads=5 / sliced_threads=0 / nr=150 / decimate=1 / interlaced=0 / bluray_compat=0 / constrained_intra=0 / bframes=8 / b_pyramid=2 / b_adapt=2 / b_bias=0 / direct=3 / weightb=1 / open_gop=0 / weightp=2 / keyint=120 / keyint_min=61 / scenecut=0 / intra_refresh=0 / rc_lookahead=120 / rc=crf / mbtree=1 / crf=18.0 / qcomp=0.60 / qpmin=0 / qpmax=69 / qpstep=4 / vbv_maxrate=15000 / vbv_bufsize=31250 / crf_max=0.0 / nal_hrd=vbr / filler=0 / ip_ratio=1.40 / aq=3:1.00
Default : Yes
Forced : No
Color range : Limited
Color primaries : BT.709
Transfer characteristics : BT.709
Matrix coefficients : BT.709

Audio
ID : 2
Format : E-AC-3
Format/Info : Enhanced Audio Coding 3
Format settings, Endianness : Big
Codec ID : A_EAC3
Duration : 23 min 57 s
Bit rate mode : Constant
Bit rate : 640 kb/s
Channel(s) : 6 channels
Channel positions : Front: L C R, Side: L R, LFE
Sampling rate : 48.0 kHz
Frame rate : 187.500 FPS (256 spf)
Compression mode : Lossy
Stream size : 110 MiB (19%)
Language : English
Service kind : Complete Main
Default : Yes
Forced : No


https://rapidgator.net/file/649ab8a02f3bef7975acdacbb1371c97/The.Ricky.Gervais.Show.S01-S03.1080p.AMZN.WEB-DL.DD_5.1.x264-Cinefeel.part1.rar.html
https://rapidgator.net/file/a42bae5a20140c17109bd0e4c42a658e/The.Ricky.Gervais.Show.S01-S03.1080p.AMZN.WEB-DL.DD_5.1.x264-Cinefeel.part2.rar.html
https://rapidgator.net/file/3007f9d47a8ec75baae32ce617586b68/The.Ricky.Gervais.Show.S01-S03.1080p.AMZN.WEB-DL.DD_5.1.x264-Cinefeel.part3.rar.html
https://rapidgator.net/file/9954de74ea21be44c4e49a70e5fae7ca/The.Ricky.Gervais.Show.S01-S03.1080p.AMZN.WEB-DL.DD_5.1.x264-Cinefeel.part4.rar.html
https://rapidgator.net/file/f8a1dcedd56acb6fa9995d9361089c16/The.Ricky.Gervais.Show.S01-S03.1080p.AMZN.WEB-DL.DD_5.1.x264-Cinefeel.part5.rar.html
https://rapidgator.net/file/c3d61e73fa769ce0843e99a68f0610b6/The.Ricky.Gervais.Show.S01-S03.1080p.AMZN.WEB-DL.DD_5.1.x264-Cinefeel.part6.rar.html


Share this topic:


Page 1 of 1
  • You cannot start a new topic
  • You cannot reply to this topic