PuZo.org: Argo.2012.extended.cut.1080P.brrip.h264.aac-Rbg - PuZo.org

Jump to content

Page 1 of 1
  • You cannot start a new topic
  • You cannot reply to this topic

Argo.2012.extended.cut.1080P.brrip.h264.aac-Rbg

#1 User is offline   muka chan 

  • Addicted to PuZo's
  • PipPipPipPipPip
  • Group: Members
  • Posts: 56461
  • Joined: 15-March 17

Posted 07 December 2023 - 03:14 PM

Argo.2012.Extended.Cut.1080p.BRRip.H264.AAC-RBG ~ 2.47 GB
[cover]Posted Image

Synopsis: In 1979, the American embassy in Iran was invaded by Iranian revolutionaries and several Americans were taken hostage. However, six managed to escape to the official residence of the Canadian Ambassador and the CIA was ordered to get them out of the country. With few options, exfiltration expert Tony Mendez devised a daring plan: create a phony Canadian film project looking to shoot in Iran and smuggle the Americans out as its production crew. With the help of some trusted Hollywood contacts, Mendez created the ruse and proceeded to Iran as its associate producer. However, time was running out with the Iranian security forces closing in on the truth while both his charges and the White House had grave doubts about the operation themselves.

Media Name.......: Argo (2012)
iMDB Votes.......: 7.7/10 (631K Votes) 
iMDB Link........: https://www.imdb.com/title/tt1024648/
Run Time.........: 120 min
Genre............: Biography /  Drama /  Thriller
Country..........: United Kingdom, United States
Language.........: English, Persian, German, Arabic
Writer...........: Chris Terrio, Tony Mendez, Joshuah Bearman
Director.........: Ben Affleck
Cast.............: Ben Affleck, Bryan Cranston, John Goodman


Download from RapidGator
https://rapidgator.net/file/abfaa31a16e4c0a4e2548192203610bd/62tflhh0iuxdh9ft.rar


Download from MultiUp
https://www.keeplinks.org/p35/65707338db6e5


Media iNFO
General
Complete name                            : Argo.2012.Extended.Cut.1080p.BRRip.H264.AAC-RBG.mp4
Format                                   : MPEG-4
Format profile                           : Base Media
Codec ID                                 : isom (isom/iso2/avc1/mp41)
File size                                : 2.47 GiB
Duration                                 : 2 h 9 min
Overall bit rate                         : 2 730 kb/s
Movie name                               : Argo.2012.Extended.Cut.1080p.BluRay.H264.AAC-RARBG
Encoded date                             : UTC 2018-02-15 23:05:45
Tagged date                              : UTC 2018-02-15 23:05:45
Writing application                      : Lavf57.83.100
Comment                                  : Argo.2012.Extended.Cut.1080p.BluRay.H264.AAC-RARBG

Video
ID                                       : 1
Format                                   : AVC
Format/Info                              : Advanced Video Codec
Format profile                           : [email protected]
Format settings                          : CABAC / 4 Ref Frames
Format settings, CABAC                   : Yes
Format settings, Reference frames        : 4 frames
Codec ID                                 : avc1
Codec ID/Info                            : Advanced Video Coding
Duration                                 : 2 h 9 min
Bit rate                                 : 2 500 kb/s
Width                                    : 1 920 pixels
Height                                   : 800 pixels
Display aspect ratio                     : 2.40:1
Frame rate mode                          : Constant
Frame rate                               : 23.976 (23976/1000) FPS
Color space                              : YUV
Chroma subsampling                       : 4:2:0
Bit depth                                : 8 bits
Scan type                                : Progressive
Bits/(Pixel*Frame)                       : 0.068
Stream size                              : 2.26 GiB (92%)
Writing library                          : x264 core 152 r2851M ba24899
Encoding settings                        : cabac=1 / ref=4 / deblock=1:-1:-1 / analyse=0x3:0x113 / me=umh / subme=9 / psy=1 / psy_rd=1.00:0.15 / mixed_ref=1 / me_range=24 / chroma_me=1 / trellis=2 / 8x8dct=1 / cqm=0 / deadzone=21,11 / fast_pskip=1 / chroma_qp_offset=-3 / threads=32 / lookahead_threads=4 / sliced_threads=0 / nr=0 / decimate=1 / interlaced=0 / bluray_compat=0 / constrained_intra=0 / bframes=3 / b_pyramid=2 / b_adapt=2 / b_bias=0 / direct=3 / weightb=1 / open_gop=0 / weightp=2 / keyint=250 / keyint_min=25 / scenecut=40 / intra_refresh=0 / rc_lookahead=50 / rc=2pass / mbtree=1 / bitrate=2500 / ratetol=1.0 / qcomp=0.60 / qpmin=0 / qpmax=69 / qpstep=4 / cplxblur=20.0 / qblur=0.5 / vbv_maxrate=31250 / vbv_bufsize=31250 / nal_hrd=none / filler=0 / ip_ratio=1.40 / aq=3:1.00
Encoded date                             : UTC 2018-02-15 23:05:45
Tagged date                              : UTC 2018-02-15 23:05:45
Codec configuration box                  : avcC

Audio
ID                                       : 2
Format                                   : AAC LC
Format/Info                              : Advanced Audio Codec Low Complexity
Codec ID                                 : mp4a-40-2
Duration                                 : 2 h 9 min
Bit rate mode                            : Constant
Bit rate                                 : 224 kb/s
Channel(s)                               : 6 channels
Channel layout                           : C L R Ls Rs LFE
Sampling rate                            : 48.0 kHz
Frame rate                               : 46.875 FPS (1024 SPF)
Compression mode                         : Lossy
Stream size                              : 208 MiB (8%)
Default                                  : Yes
Alternate group                          : 1
Encoded date                             : UTC 2018-02-15 23:05:45
Tagged date                              : UTC 2018-02-15 23:05:45



ScreenShot
Posted Image

Posted Image

Posted Image

Posted Image

Share this topic:


Page 1 of 1
  • You cannot start a new topic
  • You cannot reply to this topic