PuZo.org: Arn.the.knight.templar.2007.1080P.brrip.h264.aac-Rbg - PuZo.org

Jump to content

Page 1 of 1
  • You cannot start a new topic
  • You cannot reply to this topic

Arn.the.knight.templar.2007.1080P.brrip.h264.aac-Rbg

#1 User is offline   muka chan 

  • Addicted to PuZo's
  • PipPipPipPipPip
  • Group: Members
  • Posts: 56461
  • Joined: 15-March 17

Posted 07 December 2023 - 03:19 PM

Arn.The.Knight.Templar.2007.1080p.BRRip.H264.AAC-RBG ~ 2.55 GB
[cover]Posted Image

Synopsis: Arn, the son of a high-ranking Swedish nobleman, is educated in a monastery and sent to the Holy Land as a knight templar to do penance for a forbidden love.

Media Name.......: Arn: The Knight Templar (2007)
iMDB Votes.......: 6.6/10 (22K Votes) 
iMDB Link........: https://www.imdb.com/title/tt0837106/
Run Time.........: 139 min
Genre............: Action /  Drama /  Romance
Country..........: Sweden, United Kingdom, Denmark, Norway, Finland, Germany, Morocco
Language.........: Swedish, English, Arabic, French, Latin
Writer...........: Jan Guillou, Hans Gunnarsson
Director.........: Peter Flinth
Cast.............: Joakim Nätterqvist, Sofia Helin, Stellan Skarsgård


Download from RapidGator
https://rapidgator.net/file/d22a4b6ad0729d780442562bc1abeeec/qtcn4onh19s2gxnt.rar


Download from MultiUp
https://www.keeplinks.org/p35/6570742c903b2


Media iNFO
General
Complete name                            : Arn.The.Knight.Templar.2007.1080p.BRRip.H264.AAC-RBG.mp4
Format                                   : MPEG-4
Format profile                           : Base Media
Codec ID                                 : isom (isom/iso2/avc1/mp41)
File size                                : 2.55 GiB
Duration                                 : 2 h 13 min
Overall bit rate                         : 2 728 kb/s
Movie name                               : Arn.The.Knight.Templar.2007.1080p.BluRay.H264.AAC-RARBG
Encoded date                             : UTC 2018-07-31 18:48:38
Tagged date                              : UTC 2018-07-31 18:48:38
Writing application                      : Lavf57.83.100
Comment                                  : Arn.The.Knight.Templar.2007.1080p.BluRay.H264.AAC-RARBG

Video
ID                                       : 1
Format                                   : AVC
Format/Info                              : Advanced Video Codec
Format profile                           : [email protected]
Format settings                          : CABAC / 4 Ref Frames
Format settings, CABAC                   : Yes
Format settings, Reference frames        : 4 frames
Codec ID                                 : avc1
Codec ID/Info                            : Advanced Video Coding
Duration                                 : 2 h 13 min
Bit rate                                 : 2 500 kb/s
Width                                    : 1 920 pixels
Height                                   : 816 pixels
Display aspect ratio                     : 2.35:1
Frame rate mode                          : Constant
Frame rate                               : 23.976 (23976/1000) FPS
Color space                              : YUV
Chroma subsampling                       : 4:2:0
Bit depth                                : 8 bits
Scan type                                : Progressive
Bits/(Pixel*Frame)                       : 0.067
Stream size                              : 2.33 GiB (92%)
Writing library                          : x264 core 152 r2851M ba24899
Encoding settings                        : cabac=1 / ref=4 / deblock=1:-1:-1 / analyse=0x3:0x113 / me=umh / subme=9 / psy=1 / psy_rd=1.00:0.15 / mixed_ref=1 / me_range=24 / chroma_me=1 / trellis=2 / 8x8dct=1 / cqm=0 / deadzone=21,11 / fast_pskip=1 / chroma_qp_offset=-3 / threads=32 / lookahead_threads=4 / sliced_threads=0 / nr=0 / decimate=1 / interlaced=0 / bluray_compat=0 / constrained_intra=0 / bframes=3 / b_pyramid=2 / b_adapt=2 / b_bias=0 / direct=3 / weightb=1 / open_gop=0 / weightp=2 / keyint=250 / keyint_min=25 / scenecut=40 / intra_refresh=0 / rc_lookahead=50 / rc=2pass / mbtree=1 / bitrate=2500 / ratetol=1.0 / qcomp=0.60 / qpmin=0 / qpmax=69 / qpstep=4 / cplxblur=20.0 / qblur=0.5 / vbv_maxrate=31250 / vbv_bufsize=31250 / nal_hrd=none / filler=0 / ip_ratio=1.40 / aq=3:1.00
Encoded date                             : UTC 2018-07-31 18:48:38
Tagged date                              : UTC 2018-07-31 18:48:38
Codec configuration box                  : avcC

Audio
ID                                       : 2
Format                                   : AAC LC
Format/Info                              : Advanced Audio Codec Low Complexity
Codec ID                                 : mp4a-40-2
Duration                                 : 2 h 13 min
Bit rate mode                            : Constant
Bit rate                                 : 224 kb/s
Channel(s)                               : 6 channels
Channel layout                           : C L R Ls Rs LFE
Sampling rate                            : 48.0 kHz
Frame rate                               : 46.875 FPS (1024 SPF)
Compression mode                         : Lossy
Stream size                              : 214 MiB (8%)
Default                                  : Yes
Alternate group                          : 1
Encoded date                             : UTC 2018-07-31 18:48:38
Tagged date                              : UTC 2018-07-31 18:48:38



ScreenShot
Posted Image

Posted Image

Posted Image

Posted Image

Share this topic:


Page 1 of 1
  • You cannot start a new topic
  • You cannot reply to this topic